<?xml version="1.0" standalone="no"?>
<!DOCTYPE svg PUBLIC "-//W3C//DTD SVG 1.1//EN" "http://www.w3.org/Graphics/SVG/1.1/DTD/svg11.dtd" >
<svg xmlns="http://www.w3.org/2000/svg">
<metadata>Generated by IcoMoon</metadata>
<defs>
<font id="icomoon" horiz-adv-x="1024">
<font-face units-per-em="1024" ascent="960" descent="-64" />
<missing-glyph horiz-adv-x="1024" />
<glyph unicode="&#x20;" horiz-adv-x="512" d="" />
<glyph unicode="&#xe900;" glyph-name="add_circle" d="M505.111 857.6c-226.1 0-409.6-183.501-409.6-409.6s183.501-409.6 409.6-409.6c226.099 0 409.6 183.501 409.6 409.6s-183.501 409.6-409.6 409.6zM709.911 407.040h-163.84v-163.84h-81.92v163.84h-163.84v81.92h163.84v163.84h81.92v-163.84h163.84v-81.92z" />
<glyph unicode="&#xe901;" glyph-name="btnAcordeon" horiz-adv-x="512" d="M0-64l512 512-512 512v-1024z" />
<glyph unicode="&#xe902;" glyph-name="arrow_back" d="M845.591 488.96h-498.484l228.967 228.966-58.163 57.754-327.68-327.68 327.68-327.68 57.754 57.754-228.557 228.966h498.484v81.92z" />
<glyph unicode="&#xe903;" glyph-name="arrow_downward" d="M849.789 448l-57.754 57.754-228.966-228.557v498.483h-81.92v-498.483l-228.556 228.966-58.163-58.163 327.679-327.68 327.68 327.68z" />
<glyph unicode="&#xe904;" glyph-name="arrow_drop_down" d="M300.31 529.92l204.8-204.8 204.8 204.8h-409.6z" />
<glyph unicode="&#xe905;" glyph-name="arrow_drop_up" d="M290.070 366.080l204.8 204.8 204.8-204.8h-409.6z" />
<glyph unicode="&#xe906;" glyph-name="arrow_forward" d="M527.782 775.68l-57.754-57.754 228.557-228.966h-498.485v-81.92h498.485l-228.557-228.966 57.754-57.754 327.68 327.68-327.68 327.68z" />
<glyph unicode="&#xe907;" glyph-name="arrow_left" d="M599.831 652.8l-204.8-204.8 204.8-204.8v409.6z" />
<glyph unicode="&#xe908;" glyph-name="arrow_right" d="M440.189 243.2l204.8 204.8-204.8 204.8v-409.6z" />
<glyph unicode="&#xe909;" glyph-name="check" d="M399.231 277.197l-170.803 170.803-58.163-57.754 228.966-228.966 491.522 491.52-57.754 57.754-433.768-433.357z" />
<glyph unicode="&#xe90a;" glyph-name="clear" d="M814.502 676.966l-57.754 57.754-228.966-228.966-228.968 228.966-57.754-57.754 228.968-228.966-228.968-228.966 57.754-57.754 228.968 228.966 228.966-228.966 57.754 57.754-228.966 228.966 228.966 228.966z" />
<glyph unicode="&#xe90b;" glyph-name="create" d="M149.27 232.96v-153.6h153.6l453.018 453.018-153.6 153.6-453.018-453.018zM874.672 651.162c15.974 15.974 15.974 41.779 0 57.754l-95.846 95.846c-15.974 15.974-41.779 15.974-57.754 0l-74.957-74.957 153.6-153.6 74.957 74.957z" />
<glyph unicode="&#xe90c;" glyph-name="dehaze" d="M112.51 304.64v-81.92h819.199v81.92h-819.199zM112.51 509.44v-81.92h819.199v81.92h-819.199zM112.51 714.24v-81.92h819.199v81.92h-819.199z" />
<glyph unicode="&#xe90d;" glyph-name="delete" d="M272.15 161.28c0-45.056 36.864-81.92 81.92-81.92h327.68c45.056 0 81.92 36.864 81.92 81.92v491.52h-491.52v-491.52zM804.631 775.68h-143.36l-40.96 40.96h-204.8l-40.96-40.96h-143.36v-81.92h573.44v81.92z" />
<glyph unicode="&#xe90e;" glyph-name="email" d="M849.789 775.68h-655.359c-45.056 0-81.51-36.864-81.51-81.92l-0.41-491.52c0-45.056 36.864-81.92 81.92-81.92h655.359c45.056 0 81.92 36.864 81.92 81.92v491.52c0 45.056-36.864 81.92-81.92 81.92zM849.789 611.84l-327.68-204.8-327.679 204.8v81.92l327.679-204.8 327.68 204.8v-81.92z" />
<glyph unicode="&#xe90f;" glyph-name="filter_list" d="M423.191 202.24h163.84v81.92h-163.84v-81.92zM136.47 693.76v-81.92h737.28v81.92h-737.28zM259.35 407.040h491.52v81.92h-491.52v-81.92z" />
<glyph unicode="&#xe910;" glyph-name="flag" d="M626.086 693.76l-16.384 81.92h-368.642v-696.32h81.92v286.72h229.378l16.384-81.92h286.72v409.6h-229.376z" />
<glyph unicode="&#xe911;" glyph-name="gps_fixed" d="M494.871 611.84c-90.522 0-163.84-73.318-163.84-163.84s73.318-163.84 163.84-163.84c90.522 0 163.84 73.318 163.84 163.84s-73.318 163.84-163.84 163.84zM861.053 488.96c-18.842 170.803-154.419 306.381-325.222 325.222v84.378h-81.92v-84.378c-170.804-18.842-306.381-154.419-325.223-325.222h-84.378v-81.92h84.378c18.842-170.803 154.419-306.381 325.223-325.222v-84.378h81.92v84.378c170.803 18.842 306.381 154.419 325.222 325.222h84.378v81.92h-84.378zM494.871 161.28c-158.516 0-286.72 128.205-286.72 286.72s128.205 286.72 286.72 286.72c158.515 0 286.72-128.205 286.72-286.72s-128.205-286.72-286.72-286.72z" />
<glyph unicode="&#xe912;" glyph-name="help" d="M527.782 857.6c-226.101 0-409.602-183.501-409.602-409.6s183.501-409.6 409.602-409.6c226.099 0 409.6 183.501 409.6 409.6s-183.501 409.6-409.6 409.6zM568.742 161.28h-81.92v81.92h81.92v-81.92zM653.529 478.72l-36.864-37.683c-29.491-29.901-47.923-54.477-47.923-115.917h-81.92v20.48c0 45.056 18.432 86.016 47.923 115.917l50.79 51.61c15.155 14.746 24.166 35.226 24.166 57.754 0 45.056-36.864 81.92-81.92 81.92s-81.92-36.864-81.92-81.92h-81.922c0 90.522 73.32 163.84 163.842 163.84s163.84-73.318 163.84-163.84c0-36.045-14.746-68.813-38.093-92.16z" />
<glyph unicode="&#xe913;" glyph-name="home" d="M412.951 120.32v245.76h163.84v-245.76h204.8v327.68h122.88l-409.6 368.64-409.6-368.64h122.88v-327.68h204.8z" />
<glyph unicode="&#xe914;" glyph-name="info" d="M522.109 857.6c-226.098 0-409.599-183.501-409.599-409.6s183.501-409.6 409.599-409.6c226.099 0 409.6 183.501 409.6 409.6s-183.501 409.6-409.6 409.6zM563.069 243.2h-81.92v245.76h81.92v-245.76zM563.069 570.88h-81.92v81.92h81.92v-81.92z" />
<glyph unicode="&#xe915;" glyph-name="keyboard_arrow_down" d="M334.104 587.674l188.005-187.597 188.006 187.597 57.754-57.754-245.76-245.76-245.759 245.76 57.754 57.754z" />
<glyph unicode="&#xe916;" glyph-name="keyboard_arrow_left" d="M644.784 259.994l-187.597 188.006 187.597 188.006-57.754 57.754-245.76-245.76 245.76-245.76 57.754 57.754z" />
<glyph unicode="&#xe917;" glyph-name="keyboard_arrow_right" d="M355.195 259.994l187.599 188.006-187.599 188.006 57.756 57.754 245.76-245.76-245.76-245.76-57.756 57.754z" />
<glyph unicode="&#xe918;" glyph-name="keyboard_arrow_up" d="M339.773 308.326l188.008 187.597 188.006-187.597 57.754 57.754-245.76 245.76-245.762-245.76 57.754-57.754z" />
<glyph unicode="&#xe919;" glyph-name="location_on" d="M494.871 857.6c-158.516 0-286.72-128.205-286.72-286.72 0-215.040 286.72-532.48 286.72-532.48s286.72 317.44 286.72 532.48c0 158.515-128.205 286.72-286.72 286.72zM494.871 468.48c-56.525 0-102.4 45.875-102.4 102.4s45.876 102.4 102.4 102.4c56.525 0 102.4-45.875 102.4-102.4s-45.875-102.4-102.4-102.4z" />
<glyph unicode="&#xe91a;" glyph-name="lock" d="M740.631 611.84h-40.96v81.92c0 113.050-91.75 204.8-204.8 204.8s-204.8-91.75-204.8-204.8v-81.92h-40.96c-45.056 0-81.92-36.864-81.92-81.92v-409.6c0-45.056 36.864-81.92 81.92-81.92h491.52c45.056 0 81.92 36.864 81.92 81.92v409.6c0 45.056-36.864 81.92-81.92 81.92zM494.871 243.2c-45.056 0-81.92 36.864-81.92 81.92s36.864 81.92 81.92 81.92c45.056 0 81.92-36.864 81.92-81.92s-36.864-81.92-81.92-81.92zM621.847 611.84h-253.952v81.92c0 70.042 56.935 126.976 126.976 126.976s126.976-56.934 126.976-126.976v-81.92z" />
<glyph unicode="&#xe91b;" glyph-name="more_horiz" d="M282.020 529.92c-45.056 0-81.92-36.864-81.92-81.92s36.864-81.92 81.92-81.92c45.056 0 81.92 36.864 81.92 81.92s-36.864 81.92-81.92 81.92zM773.542 529.92c-45.056 0-81.92-36.864-81.92-81.92s36.864-81.92 81.92-81.92c45.056 0 81.92 36.864 81.92 81.92s-36.864 81.92-81.92 81.92zM527.782 529.92c-45.056 0-81.92-36.864-81.92-81.92s36.864-81.92 81.92-81.92c45.056 0 81.92 36.864 81.92 81.92s-36.864 81.92-81.92 81.92z" />
<glyph unicode="&#xe91c;" glyph-name="more_vert" d="M517.911 611.84c45.056 0 81.92 36.864 81.92 81.92s-36.864 81.92-81.92 81.92c-45.056 0-81.92-36.864-81.92-81.92s36.864-81.92 81.92-81.92zM517.911 529.92c-45.056 0-81.92-36.864-81.92-81.92s36.864-81.92 81.92-81.92c45.056 0 81.92 36.864 81.92 81.92s-36.864 81.92-81.92 81.92zM517.911 284.16c-45.056 0-81.92-36.864-81.92-81.92s36.864-81.92 81.92-81.92c45.056 0 81.92 36.864 81.92 81.92s-36.864 81.92-81.92 81.92z" />
<glyph unicode="&#xe91d;" glyph-name="near_me" d="M873.751 816.64l-737.28-308.429v-40.141l280.167-108.544 108.134-280.166h40.141l308.838 737.28z" />
<glyph unicode="&#xe91e;" glyph-name="person" d="M517.96 448c90.522 0 163.84 73.318 163.84 163.84s-73.318 163.84-163.84 163.84c-90.522 0-163.84-73.318-163.84-163.84s73.318-163.84 163.84-163.84zM517.96 366.080c-109.363 0-327.68-54.886-327.68-163.84v-81.92h655.36v81.92c0 108.954-218.317 163.84-327.68 163.84z" />
<glyph unicode="&#xe91f;" glyph-name="save_alt" d="M804.631 448v-286.72h-573.44v286.72h-81.92v-286.72c0-45.056 36.864-81.92 81.92-81.92h573.44c45.056 0 81.92 36.864 81.92 81.92v286.72h-81.92zM558.871 420.557l106.086 105.677 57.754-57.754-204.8-204.8-204.8 204.8 57.754 57.754 106.087-105.677v396.083h81.92v-396.083z" />
<glyph unicode="&#xe920;" glyph-name="search" d="M648.471 366.080h-32.358l-11.469 11.059c40.141 46.694 64.307 107.315 64.307 173.261 0 147.046-119.194 266.24-266.24 266.24s-266.24-119.194-266.24-266.24c0-147.046 119.194-266.24 266.24-266.24 65.946 0 126.567 24.166 173.261 64.307l11.059-11.469v-32.358l204.8-204.39 61.030 61.030-204.39 204.8zM402.71 366.080c-101.99 0-184.32 82.33-184.32 184.32s82.33 184.32 184.32 184.32c101.991 0 184.32-82.33 184.32-184.32s-82.33-184.32-184.32-184.32z" />
<glyph unicode="&#xe921;" glyph-name="send" d="M118.589 79.36l859.752 368.64-859.752 368.64-0.41-286.72 614.402-81.92-614.402-81.92 0.41-286.72z" />
<glyph unicode="&#xe922;" glyph-name="share" d="M750.871 280.883c-31.13 0-58.982-12.288-80.282-31.539l-292.045 169.984c2.048 9.421 3.686 18.842 3.686 28.672s-1.638 19.251-3.686 28.672l288.768 168.346c22.118-20.48 51.2-33.178 83.558-33.178 67.994 0 122.88 54.886 122.88 122.88s-54.886 122.88-122.88 122.88c-67.994 0-122.88-54.886-122.88-122.88 0-9.83 1.638-19.251 3.686-28.672l-288.768-168.346c-22.118 20.48-51.2 33.178-83.558 33.178-67.994 0-122.88-54.886-122.88-122.88s54.886-122.88 122.88-122.88c32.358 0 61.44 12.698 83.558 33.178l291.636-170.394c-2.048-8.602-3.277-17.613-3.277-26.624 0-65.946 53.658-119.603 119.603-119.603s119.603 53.658 119.603 119.603c0 65.946-53.658 119.603-119.603 119.603z" />
<glyph unicode="&#xe923;" glyph-name="star_border" d="M904.471 561.050l-294.502 25.395-115.098 271.155-115.098-271.565-294.502-24.986 223.642-193.741-67.174-287.949 253.133 152.781 253.133-152.781-66.765 287.949 223.232 193.741zM494.871 308.736l-154.010-92.979 40.96 175.309-135.987 117.965 179.405 15.565 69.632 165.069 70.042-165.478 179.405-15.565-135.987-117.965 40.96-175.309-154.419 93.389z" />
<glyph unicode="&#xe924;" glyph-name="visibility" d="M527.782 755.2c-204.802 0-379.701-127.386-450.562-307.2 70.861-179.814 245.76-307.2 450.562-307.2 204.8 0 379.699 127.386 450.56 307.2-70.861 179.814-245.76 307.2-450.56 307.2zM527.782 243.2c-113.050 0-204.802 91.75-204.802 204.8s91.752 204.8 204.802 204.8c113.050 0 204.8-91.75 204.8-204.8s-91.75-204.8-204.8-204.8zM527.782 570.88c-67.994 0-122.882-54.886-122.882-122.88s54.888-122.88 122.882-122.88c67.994 0 122.88 54.886 122.88 122.88s-54.886 122.88-122.88 122.88z" />
<glyph unicode="&#xe925;" glyph-name="visibility_off" d="M517.911 652.8c113.050 0 204.8-91.75 204.8-204.8 0-26.624-5.325-51.61-14.746-74.957l119.603-119.603c61.85 51.61 110.592 118.374 140.493 194.56-70.861 179.814-245.76 307.2-450.56 307.2-57.344 0-112.231-10.24-163.021-28.672l88.474-88.474c23.347 9.421 48.333 14.746 74.957 14.746zM108.31 764.621l112.23-112.23c-67.994-52.838-121.242-123.29-153.19-204.39 70.861-179.814 245.76-307.2 450.56-307.2 63.488 0 124.109 12.288 179.405 34.406l17.203-17.203 120.013-119.603 52.019 52.019-726.221 726.221-52.019-52.019zM334.819 538.112l63.488-63.488c-2.048-8.602-3.277-17.613-3.277-26.624 0-67.994 54.887-122.88 122.88-122.88 9.011 0 18.022 1.229 26.624 3.277l63.488-63.488c-27.443-13.517-57.754-21.709-90.112-21.709-113.050 0-204.8 91.75-204.8 204.8 0 32.358 8.192 62.669 21.709 90.112zM511.357 570.061l129.024-129.024 0.819 6.554c0 67.994-54.886 122.88-122.88 122.88l-6.963-0.41z" />
<glyph unicode="&#xe926;" glyph-name="warning" d="M71.55 79.36h901.119l-450.56 778.24-450.559-778.24zM563.069 202.24h-81.92v81.92h81.92v-81.92zM563.069 366.080h-81.92v163.84h81.92v-163.84z" />
<glyph unicode="&#xe927;" glyph-name="watch_later" d="M494.871 857.6c-225.28 0-409.6-184.32-409.6-409.6s184.32-409.6 409.6-409.6c225.28 0 409.6 184.32 409.6 409.6s-184.32 409.6-409.6 409.6zM666.903 275.968l-212.992 131.072v245.76h61.44v-212.992l184.32-110.592-32.768-53.248z" />
</font>
</defs>
</svg>
